Padman (2018) - 720p - PreDVD-Rip - Hindi - x264 - MP3 - Mafiakin...

  • Category Movies
  • Type Bollywood
  • Language Hindi
  • Total size 975.9 MB
  • Uploaded By Mafiaking
  • Downloads 61528
  • Last checked 4 days ago
  • Date uploaded 1 week ago
  • Seeders 1003
  • Leechers 590

Padman

ComedyDrama

Concerned about his wife Gayatri's menstrual hygiene, Lakshmikant Chauhan urges her to ditch the cloth and opt for sanitary napkins. Gayatri is reluctant to go for disposable pads as they are expensive. Lakshmi obsessing over a 'ladies problem' makes her cringe but he insists on bringing upon a change by addressing the taboo topic. Subjected to hostility for ruffling the religious and age-old beliefs of people around, can the man brave the resistance and get his point across?

Infohash : 361B11CFCE26F4F1BA4B4CD2B1D4277C2EF0DFAA












Ratings: 8.6/10

Genere: Biography, Comedy, Drama

General
Complete name : Padman (2018) - 720p - PreDVD-Rip - Hindi - x264 - MP3 - Mafiaking - M2Tv.mkv
Format : Matroska
File size : 969 MiB
Duration : 2 h 12 min
Overall bit rate : 1 025 kb/s
Movie name : Padman (2018) - 720p - PreDVD-Rip - Hindi - x264 - MP3 - Mafiaking - M2Tv

Video
ID : 1
Format : AVC
Codec ID : V_MPEG4/ISO/AVC
Duration : 2 h 12 min
Bit rate : 911 kb/s
Width : 1 280 pixels
Height : 544 pixels
Display aspect ratio : 2.35:1
Frame rate mode : Constant
Frame rate : 25.000 FPS
Stream size : 862 MiB (89%)
Title : Mafiaking
Language : Hindi
Default : Yes
Forced : No

Audio
ID : 2
Format : MPEG Audio
Codec ID/Hint : MP3
Duration : 2 h 12 min
Bit rate : 112 kb/s
Channel(s) : 2 channels
Stream size : 106 MiB (11%)
Title : Mafiaking
Language : Hindi
Default : Yes
Forced : No

SAMPLE WITH IN TORRENT

[/quote]


**To View Image In Full Size Click on Thumbnails**



Files:

Padman 2018 720p PreDVD-Rip x264 MP3 Mafiaking M2Tv
  • Padman 2018 720p PreDVD-Rip x264 MP3 Mafiaking M2Tv.mkv (969.3 MB)
  • Registration Open on NBTorrents.txt (0.1 KB)
  • SaMple.mkv (6.6 MB)
  • To keep M2Tv going please read.txt (0.2 KB)
  • Torrent Downloaded From NextBit Torrents.txt (0.0 KB)

Comments

Code:

  • udp://tracker.coppersurfer.tk:6969/announce
  • udp://thetracker.org:80/announce
  • udp://tracker.leechers-paradise.org:6969/announce
  • udp://eddie4.nl:6969/announce
  • udp://zer0day.ch:1337/announce
  • udp://tracker.sktorrent.net:6969/announce
  • udp://9.rarbg.me:2710/announce
  • udp://9.rarbg.to:2710/announce
  • udp://torrent.gresille.org:80/announce
  • udp://tracker.aletorrenty.pl:2710/announce
  • udp://tracker.piratepublic.com:1337/announce
  • udp://tracker.opentrackr.org:1337/announce
  • udp://explodie.org:6969/announce
  • udp://p4p.arenabg.ch:1337/announce